Witaj Gościu! jeżeli widzisz ten dymek to znaczy że nie jesteś zarejestrowany/zalogowany. Kliknij by się zarejestrować. Rejestracja zajmie mniej niż 30 sekund, a dzięki niej zyskasz możliwość pobierania, komentowania oraz dodawania torrentów !

MENU


Kategorie


FACEBOOK


PROGRAMY


REKLAMA


ZAGŁOSUJ NA NAS


Torrent



Torrent: Belfer S02E07 [1080p HDTV H 264 AC3] [PL]
Dodał:  Heisenberg
Data: 04-12-2017
Rozmiar: 4.43 GB
Seed: 92
Peer: 9
Pobierz Torrent


Kategoria:  Seriale Polskie

Zaakceptował: Nie wymagał akceptacji
Liczba pobrań: 280
Liczba komentarzy: 0
Ostatnia aktualizacja: 2017-12-11 00:29:27
OPIS:

Belfer S02E07 [1080p.HDTV.H.264.AC3] [PL]



produkcja: PL
gatunek: Kryminał, Thriller
scenariusz: Wojciech Bockenheim, Jakub Żulczyk, Monika Powalisz, Bartłomiej Ignaciuk
reżyseria: Krzysztof Łukaszewicz, Maciek Bochniak
zdjęcia: Michał Sobociński
muzyka: Atanas Valkov
czas trwania: ok. 62 min.



Belfer, Paweł Zawadzki, zostaje zmuszony do podjęcia pracy w jednym z prestiżowych liceów we Wrocławiu. Już wydarzenia pierwszych kilku dni w nowej szkole wywołują w nim wstrząs. W liceum dochodzi do tragedii. Pojawia się milion pytań, na które nie ma odpowiedzi. Jedno jest jasne - na terenie liceum toczy się mordercza gra. To nie jest szkoła, jak każda inna. To nie są zwykli uczniowie, a Belfer nie znalazł się tam przypadkowo.



Maciej Stuhr - Paweł Zawadzki
Eliza Rycembel - Luiza
Zofia Wichłacz - Karolina
Michalina Łabacz - Magda
Mirosław Haniszewski - inspektor Kowalczyk
Aleksandra Konieczna - dyrektorka liceum
Szymon Piotr Warszawski - Radek Kędzierski z CBŚ
Krystian Pesta - Borys z CBŚ
Philippe Tłokiński - Orzechowski
Stefan Pawłowski - Olaf
Adrian Zaremba - Patryk
Bartosz Sak - Sławek
Damian Kret - Iwo
Jakub Gąsowski - Szymon
Stanisław Linowski - Tymek



Format : Matroska
Format version : Version 4 / Version 2
File size : 4.43 GiB
Duration : 1 h 2 min
Overall bit rate : 10.2 Mb/s
Encoded date : UTC 2017-12-03 22:08:57

Video
ID : 1
Format : AVC
Format/Info : Advanced Video Codec
Format profile : [email protected]
Format settings, CABAC : No
Format settings, RefFrames : 1 frame
Format settings, GOP : M=1, N=3
Codec ID : V_MPEG4/ISO/AVC
Duration : 1 h 2 min
Bit rate : 9 812 kb/s
Width : 1 920 pixels
Height : 1 080 pixels
Display aspect ratio : 16:9
Frame rate mode : Constant
Frame rate : 25.000 FPS
Color space : YUV
Chroma subsampling : 4:2:0
Bit depth : 8 bits
Scan type : Progressive
Bits/(Pixel*Frame) : 0.189
Stream size : 4.27 GiB (96%)

Audio
ID : 2
Format : AC-3
Format/Info : Audio Coding 3
Format settings, Endianness : Big
Codec ID : A_AC3
Duration : 1 h 2 min
Bit rate mode : Constant
Bit rate : 384 kb/s
Channel(s) : 2 channels
Channel positions : Front: L R
Sampling rate : 48.0 kHz
Frame rate : 31.250 FPS (1536 SPF)
Bit depth : 16 bits
Compression mode : Lossy
Stream size : 171 MiB (4%)
Language : Polish
Service kind : Complete Main

DETALE TORRENTA:[ ]



Podobne pliki
Nie znaleziono podobnych tytułów!


Komentarze